<?xml version="1.0" standalone="no"?>
<!DOCTYPE svg PUBLIC "-//W3C//DTD SVG 1.1//EN" "http://www.w3.org/Graphics/SVG/1.1/DTD/svg11.dtd" >
<svg xmlns="http://www.w3.org/2000/svg">
<metadata>
Created by FontForge 20120731 at Fri Apr 29 16:47:15 2016
 By admin
</metadata>
<defs>
<font id="iconfont" horiz-adv-x="1024" >
  <font-face
    font-family="iconfont"
    font-weight="500"
    font-stretch="normal"
    units-per-em="1024"
    panose-1="2 0 6 3 0 0 0 0 0 0"
    ascent="896"
    descent="-128"
    x-height="792"
    bbox="0 -168 1892 936"
    underline-thickness="50"
    underline-position="-100"
    unicode-range="U+0078-E691"
  />
<missing-glyph horiz-adv-x="374"
d="M34 0v682h272v-682h-272zM68 34h204v614h-204v-614z" />
    <glyph glyph-name=".notdef" horiz-adv-x="374"
d="M34 0v682h272v-682h-272zM68 34h204v614h-204v-614z" />
    <glyph glyph-name=".null" horiz-adv-x="0"
 />
    <glyph glyph-name="nonmarkingreturn" horiz-adv-x="341"
 />
    <glyph glyph-name="x" unicode="x" horiz-adv-x="1001"
d="M281 543q-27 -1 -53 -1h-83q-18 0 -36.5 -6t-32.5 -18.5t-23 -32t-9 -45.5v-76h912v41q0 16 -0.5 30t-0.5 18q0 13 -5 29t-17 29.5t-31.5 22.5t-49.5 9h-133v-97h-438v97zM955 310v-52q0 -23 0.5 -52t0.5 -58t-10.5 -47.5t-26 -30t-33 -16t-31.5 -4.5q-14 -1 -29.5 -0.5
t-29.5 0.5h-32l-45 128h-439l-44 -128h-29h-34q-20 0 -45 1q-25 0 -41 9.5t-25.5 23t-13.5 29.5t-4 30v167h911zM163 247q-12 0 -21 -8.5t-9 -21.5t9 -21.5t21 -8.5q13 0 22 8.5t9 21.5t-9 21.5t-22 8.5zM316 123q-8 -26 -14 -48q-5 -19 -10.5 -37t-7.5 -25t-3 -15t1 -14.5
t9.5 -10.5t21.5 -4h37h67h81h80h64h36q23 0 34 12t2 38q-5 13 -9.5 30.5t-9.5 34.5q-5 19 -11 39h-368zM336 498v228q0 11 2.5 23t10 21.5t20.5 15.5t34 6h188q31 0 51.5 -14.5t20.5 -52.5v-227h-327z" />
    <glyph glyph-name="uniE600" unicode="&#xe600;"
d="M514.5 889q-103.5 0 -197 -40t-161.5 -108t-108.5 -162t-40.5 -197t40.5 -197t108.5 -162t161.5 -108t197 -40t197 40t161.5 108t108 162t40 197t-40 197t-108 162t-161.5 108t-197 40zM514.5 826q90.5 0 172.5 -35.5t141.5 -95t94.5 -141.5t35 -172t-35 -172.5
t-94.5 -142t-142 -94.5t-172.5 -35t-172 35t-141.5 94.5t-94.5 142t-35 172.5t35 172t94.5 141.5t141.5 95t172.5 35.5zM293 414h443q13 0 22.5 -9.5t9.5 -22.5t-9.5 -22.5t-22.5 -9.5h-443q-13 0 -22.5 9.5t-9.5 22.5t9.5 22.5t22.5 9.5zM546 604v-444q0 -13 -9 -22
t-22.5 -9t-22.5 9t-9 22v444q0 13 9 22.5t22.5 9.5t22.5 -9.5t9 -22.5z" />
    <glyph glyph-name="uniE601" unicode="&#xe601;"
d="M959 352q-6 -4 -14 -6l-118 -29l-11 -34q-8 -22 -19 -45l-16 -32l62 -104q5 -8 6 -15l-41 -42q-9 3 -11 4l-105 67l-33 -17q-23 -12 -48 -20l-34 -11l-27 -118q-1 -10 -7 -14h-57q-4 6 -6 15l-29 117l-34 11q-27 8 -52 21l-33 18l-105 -67q-6 -5 -13 -5l-42 41q2 7 6 14
l65 109l-15 31q-11 22 -18 42l-10 34l-117 29q-10 2 -16 6v60q1 0 4.5 2t6.5 2l120 27l11 35q7 21 19 45l15 32l-64 107q-5 8 -7 15l42 42q8 -2 11 -4l107 -68l33 17q25 13 51 22l34 10l29 117q2 9 7 15h59l1 -2q1 -1 2 -4t1 -5l27 -120l35 -12q24 -8 48 -20l33 -17l103 65
q6 5 13 5l41 -41q-1 -7 -5 -14l-63 -105l16 -31q13 -26 20 -49l11 -35l118 -26q11 -3 13 -8v-57zM959 479l-81 18q-9 28 -25 59l45 73q14 23 15.5 46t-15.5 44l-45 45q-20 18 -46 17.5t-47 -14.5l-71 -46q-29 15 -59 25l-18 83q-4 24 -23 43.5t-44 19.5h-64q-24 0 -41 -19
t-23 -45l-20 -82q-32 -10 -62 -26l-74 47q-20 14 -46 14.5t-46 -17.5l-45 -45q-17 -21 -15.5 -44t15.5 -46l47 -77q-14 -29 -23 -55l-81 -18q-25 -5 -44.5 -23.5t-19.5 -43.5v-64q0 -25 19 -41.5t45 -22.5l83 -21q8 -24 21 -50l-47 -78q-14 -22 -15.5 -45.5t15.5 -44.5
l45 -45q20 -18 46 -17.5t46 14.5l74 47q31 -16 63 -26l20 -82q6 -25 22.5 -44t41.5 -19h63q25 0 44 19t24 44l18 83q29 9 58 24l71 -46q21 -14 46.5 -14.5t46.5 17.5l45 45q17 21 15.5 44.5t-15.5 45.5l-45 74q14 27 23 54l83 21q26 6 45 22.5t19 41.5v64q0 25 -19.5 43.5
t-44.5 23.5zM513 510q-53 0 -90 -37.5t-37 -90t37 -90t90 -37.5t90 37.5t37 90t-37 90t-90 37.5zM513.5 191q-79.5 0 -135.5 56t-56 135t56 135.5t135.5 56.5t135.5 -56.5t56 -135.5t-56 -135t-135.5 -56z" />
    <glyph glyph-name="uniE602" unicode="&#xe602;" horiz-adv-x="1195"
d="M580.5 896q-154.5 0 -285.5 -57t-207.5 -155.5t-76.5 -214.5q0 -110 62.5 -201.5t175.5 -149.5q0 -1 -0.5 -1.5t-0.5 -1.5q0 -72 -56 -170q-3 -6 -3 -12q0 -14 9.5 -23.5t22.5 -9.5q2 0 5 0.5t4 0.5v0q74 12 152.5 62.5t105.5 83.5q29 -4 63 -4h13h16q155 0 286 57
t207 155t76 214t-76 214.5t-207 155.5t-285.5 57zM580 825q135 0 250 -47.5t181.5 -129.5t66.5 -178.5t-66.5 -178.5t-181.5 -129.5t-250 -47.5h-17h-12q-29 0 -53 3l-39 6l-26 -31q-12 -14 -53 -44t-85 -51q23 61 24 113l1 2v6v43l-39 20q-95 49 -147 124t-52 164
q0 97 67 179t181.5 129.5t249.5 47.5z" />
    <glyph glyph-name="uniE603" unicode="&#xe603;" horiz-adv-x="1076"
d="M522 895q-69 0 -136.5 -33.5t-109.5 -85.5t-42 -104v-160q0 -66 30.5 -150.5t90.5 -132.5l-281 -133q-7 -3 -17.5 -9t-28.5 -22.5t-18 -32.5v-96q0 -27 19 -45.5t45 -18.5h896q26 0 45 18.5t19 45.5v96q0 8 -3.5 15.5t-9.5 13.5t-12.5 12t-13.5 10t-12.5 7t-8.5 4l-4 2
l-279 132q60 47 89.5 130t29.5 154v160q0 52 -42 104t-109.5 85.5t-136.5 33.5zM522 831q52 0 105 -25.5t86 -63t33 -70.5v-160q0 -57 -24 -127t-70 -107q-29 -22 -24.5 -57.5t36.5 -50.5l279 -132h2l4 -2t5 -3t5.5 -5t5 -7t4 -10t1.5 -13v-62h-896v65q0 25 27 37l281 132
q32 15 36.5 50.5t-23.5 58.5q-45 36 -71 107t-26 126v160q0 33 33 70.5t86 63t105 25.5z" />
    <glyph glyph-name="uniE604" unicode="&#xe604;"
d="M545 896h-352q-27 0 -45.5 -19t-18.5 -45v-896q0 -27 18.5 -45.5t45.5 -18.5h608q26 0 45 18.5t19 45.5v640zM518 832l283 -283v-613h-608v896h325zM833 480h-384v384h64v-320h320v-64z" />
    <glyph glyph-name="uniE605" unicode="&#xe605;"
d="M512 475q13 0 22.5 -9.5t9.5 -22.5v-313q0 -13 -9.5 -22t-22.5 -9t-22 9t-9 22v313q0 13 9 22.5t22 9.5zM449 477h63q13 0 22.5 -9.5t9.5 -22.5t-9.5 -22t-22.5 -9h-63q-13 0 -22 9t-9 22t9 22.5t22 9.5zM449 162h126q13 0 22.5 -9.5t9.5 -22.5t-9.5 -22t-22.5 -9h-126
q-13 0 -22 9t-9 22t9 22.5t22 9.5zM512 666q26 0 44.5 -18.5t18.5 -45t-18.5 -44.5t-44.5 -18t-44.5 18t-18.5 44.5t18.5 45t44.5 18.5zM512.5 886q-102.5 0 -196 -40t-161 -107.5t-107.5 -160.5t-40 -195.5t40 -196t107.5 -161t161 -107.5t196 -40t195.5 40t160.5 107.5
t107.5 161t40 196t-40 195.5t-107.5 160.5t-160.5 107.5t-195.5 40zM512.5 823q89.5 0 171 -35t140.5 -94t94 -140.5t35 -171t-35 -171.5t-94 -141t-140.5 -94.5t-171 -35.5t-171 35.5t-141 94.5t-94.5 141t-35 171.5t35 171t94.5 140.5t141 94t171 35z" />
    <glyph glyph-name="uniE606" unicode="&#xe606;" horiz-adv-x="1265"
d="M871 885h-466l-93 -155h-178q-37 0 -77 -32t-40 -83v-623q0 -46 34.5 -81t74.5 -35h1019q40 0 77 35.5t37 79.5v623q0 36 -32 76t-84 40h-179zM830 808l69 -118l22 -38h222q12 0 22 -9.5t13 -17.5t4 -11v-623q0 -11 -13.5 -24t-23.5 -13h-1019q-8 0 -19.5 12t-11.5 26
v623q0 16 15 26t24 11h222l23 38l70 118h381zM638.5 614q-112.5 0 -192 -80t-79.5 -192.5t79.5 -192t192 -79.5t192 79.5t79.5 192t-79.5 192.5t-192 80zM638.5 536q80.5 0 137 -57t56.5 -137.5t-56.5 -137t-137 -56.5t-137.5 56.5t-57 137t57 137.5t137.5 57z" />
    <glyph glyph-name="uniE607" unicode="&#xe607;"
d="M545 896h-352q-27 0 -45.5 -19t-18.5 -45v-896q0 -27 18.5 -45.5t45.5 -18.5h608q26 0 45 18.5t19 45.5v640zM518 832l283 -283v-613h-608v896h325zM833 480h-384v384h64v-320h320v-64z" />
    <glyph glyph-name="uniE608" unicode="&#xe608;" horiz-adv-x="1073"
d="M176 -113q-68 0 -120 52q-56 57 -56 136.5t56 136.5l584 619q68 68 161.5 63t170.5 -82q34 -34 52.5 -81.5t17.5 -99.5q-2 -107 -74 -179l-440 -470q-10 -10 -23.5 -10t-23 9t-10 22.5t8.5 23.5l442 470q54 54 55 135.5t-51 133.5q-33 33 -73 50.5t-85.5 11.5t-81.5 -42
l-583 -620q-38 -37 -38 -90t37 -90q36 -36 80 -33q45 3 84 42l464 494q55 54 17 92q-20 20 -38 18q-20 -1 -44 -25l-349 -372q-9 -10 -22.5 -10.5t-23.5 9t-10 23t9 23.5l350 372q41 41 84 45q49 4 90 -37q37 -37 33 -88t-49 -96l-464 -494q-57 -57 -127 -61q-5 -1 -10 -1z
" />
    <glyph glyph-name="uniE609" unicode="&#xe609;"
d="M644.5 -38q-12.5 0 -21.5 9t-9 22q0 141 -64 255t-178 178.5t-255 64.5q-13 0 -22 9t-9 22t9 22t22 9q119 0 223 -42.5t177.5 -116.5t115.5 -178t42 -223q0 -13 -9 -22t-21.5 -9zM954 -36q-13 0 -22 9t-9 22q0 164 -64 313t-172 257t-257 172t-313 64q-12 0 -21.5 9
t-9.5 21.5t9.5 22t21.5 9.5q118 0 230.5 -31.5t207.5 -87.5t175.5 -136t136.5 -175t87 -207.5t31 -230.5q0 -13 -9 -22t-22 -9zM195 182q-46 0 -78.5 -32.5t-32.5 -78.5t32.5 -78.5t78.5 -32.5t78.5 32.5t32.5 78.5t-32.5 78.5t-78.5 32.5zM195 -100q-71 0 -121 50t-50 121
t50 121t120.5 50t120.5 -50t50 -121t-50 -121t-120 -50z" />
    <glyph glyph-name="uniE60A" unicode="&#xe60a;"
d="M505 708h-430v-765h704v390l61 58v-448q0 -25 -18 -43t-43 -18h-704q-25 0 -43 18t-18 43v765q0 26 18 43.5t43 17.5h490l2 -1zM855 862q-55 0 -98 -43l-111 -111q-105 -105 -207 -206l-102 -102q-5 -5 -6 -12q-3 -8 -7.5 -24.5t-10.5 -37t-13 -42.5t-13 -43t-11 -37.5
t-8.5 -27t-3.5 -11.5q-5 -15 7 -26q7 -7 18 -7q4 0 8 1q125 42 218 70q6 2 11 6q415 411 422 418q47 48 46 99t-48 96q-42 40 -91 40zM855 801q25 0 49 -23q29 -28 29 -53q0 -26 -29 -56q-26 -27 -396 -391l-19 -19q-35 -11 -147 -47q35 113 45 151q399 399 413 412
q26 26 55 26z" />
    <glyph glyph-name="uniE60B" unicode="&#xe60b;"
d="M951 727h-865v-773h865v773zM951 -108h-865q-26 0 -44 18.5t-18 43.5v773q0 26 18 44t44 18h865q26 0 44 -18t18 -44v-773q0 -25 -18 -43.5t-44 -18.5zM395 696q0 -13 -9 -22t-22 -9t-22 9t-9 22v154q0 13 9 22t22 9t22 -9t9 -22v-154zM704 696q0 -13 -9 -22t-22 -9
t-22 9t-9 22v154q0 13 9 22t22 9t22 -9t9 -22v-154zM735 511h62q13 0 22 -9.5t9 -21.5v-62q0 -13 -9 -22t-22 -9h-62q-13 0 -22 9t-9 22v62q0 12 9 21.5t22 9.5zM735 263h62q13 0 22 -9t9 -22v-61q0 -13 -9 -22t-22 -9h-62q-13 0 -22 9t-9 22v61q0 13 9 22t22 9zM488 263h62
q12 0 21.5 -9t9.5 -22v-61q0 -13 -9.5 -22t-21.5 -9h-62q-13 0 -22 9t-9 22v61q0 13 9 22t22 9zM488 511h62q12 0 21.5 -9.5t9.5 -21.5v-62q0 -13 -9.5 -22t-21.5 -9h-62q-13 0 -22 9t-9 22v62q0 12 9 21.5t22 9.5zM240 511h62q13 0 22 -9.5t9 -21.5v-62q0 -13 -9 -22
t-22 -9h-62q-12 0 -21 9t-9 22v62q0 12 9 21.5t21 9.5zM240 263h62q13 0 22 -9t9 -22v-61q0 -13 -9 -22t-22 -9h-62q-12 0 -21 9t-9 22v61q0 13 9 22t21 9z" />
    <glyph glyph-name="uniE60C" unicode="&#xe60c;"
d="M807 369l-482 -482l-65 65l481 482zM731 328l-482 481l65 65l482 -481z" />
    <glyph glyph-name="uniE60D" unicode="&#xe60d;"
d="M517.5 885q-102.5 0 -196 -40t-161 -107.5t-107.5 -161t-40 -196t40 -196t107.5 -161t161 -107.5t196 -40t196 40t161 107.5t107.5 161t40 196t-40 196t-107.5 161t-161 107.5t-196 40zM517.5 822q89.5 0 171 -35t141 -94.5t94.5 -141t35 -171t-35 -171.5t-94.5 -141.5
t-141 -94.5t-171 -35t-171.5 35t-141 94.5t-94 141.5t-35 171.5t35 171t94 141t141 94.5t171.5 35zM517 727q13 0 22.5 -9.5t9.5 -22.5v-315q0 -13 -9.5 -22t-22.5 -9t-22 9t-9 22v315q0 13 9 22.5t22 9.5zM697.5 200q-9.5 -9 -22.5 -9t-22 9l-156 156q-9 9 -9 22t9 22.5
t22 9.5t23 -10l156 -156q9 -9 9 -22t-9.5 -22z" />
    <glyph glyph-name="uniE60E" unicode="&#xe60e;"
d="M162 541q66 0 112 -46t46 -112t-46 -112t-112 -46t-112.5 46t-46.5 112t46.5 112t112.5 46zM162 478q39 0 67 -28t28 -67t-28 -67t-67 -28t-67 28t-28 67t28 67t67 28zM295 351l-25 -58l457 -233l25 58zM859 193q66 0 112 -46.5t46 -112t-46 -112t-112 -46.5t-112 46.5
t-46 112t46 112t112 46.5zM859 129q39 0 67 -27.5t28 -67t-28 -67.5t-67 -28t-67 28t-28 67.5t28 67t67 27.5zM859 890q66 0 112 -46.5t46 -112t-46 -112t-112 -46.5t-112 46.5t-46 112t46 112t112 46.5zM859 826q39 0 67 -27.5t28 -67t-28 -67.5t-67 -28t-67 28t-28 67.5
t28 67t67 27.5zM295 426l-25 59l457 222l25 -59z" />
    <glyph glyph-name="uniE60F" unicode="&#xe60f;"
d="M217 399l482 482l65 -65l-481 -482zM293 440l482 -481l-65 -65l-482 481z" />
    <glyph glyph-name="uniE610" unicode="&#xe610;" horiz-adv-x="1186"
d="M263 192q-95 1 -162.5 68.5t-67.5 162.5q0 96 67.5 163.5t163.5 67.5h374l285 228v-919l-287 229h-143v-230q0 -24 -17 -40.5t-41 -16.5h-114q-24 0 -41 17t-17 40v230zM1001 245q71 0 121.5 50.5t50.5 121.5t-50.5 121.5t-121.5 50.5v-344z" />
    <glyph glyph-name="uniE611" unicode="&#xe611;" horiz-adv-x="1125"
d="M199 867l863 -864q26 -25 26 -61t-25.5 -62t-62 -26t-61.5 26l-864 864q-25 25 -25 61t25.5 62t61.5 26t62 -26zM199 -120q-26 -26 -62 -26t-61.5 25.5t-25.5 62t25 61.5l864 864q25 26 61.5 26t62 -26t25.5 -62t-26 -61z" />
    <glyph glyph-name="uniE612" unicode="&#xe612;" horiz-adv-x="1469"
d="M611.5 -69.5q-23.5 -23.5 -56.5 -23.5t-56 23l-395 395q-24 24 -24 57t23.5 56t56.5 23t57 -23l395 -395q23 -23 23 -56t-23.5 -56.5zM499 -67q24 -24 57 -24t56 24l804 809q23 23 23 56t-23.5 56.5t-56.5 23.5t-56 -23l-804 -809q-23 -24 -23 -57t23 -56z" />
    <glyph glyph-name="uniE613" unicode="&#xe613;"
d="M128 -128v1024l768 -512z" />
    <glyph glyph-name="uniE614" unicode="&#xe614;"
d="M633 663q-13 0 -22.5 9.5t-9.5 22.5v115q0 10 -10 10h-173q-9 0 -9 -10v-107q0 -13 -9.5 -22.5t-23 -9.5t-23 9.5t-9.5 22.5v107q0 30 22 51t52 21h173q31 0 52.5 -21t21.5 -51v-115q0 -13 -9.5 -22.5t-22.5 -9.5zM705 -128h-401q-26 0 -45.5 17.5t-21.5 43.5l-78 751
q-1 13 7.5 23.5t22 11.5t23.5 -7t12 -21l77 -752q0 -4 3 -4h401q3 0 4 3l77 753q1 13 11.5 21t23.5 7t21.5 -11.5t7.5 -23.5l-77 -751q-2 -26 -22 -43.5t-46 -17.5zM892 661h-774q-14 0 -23.5 9.5t-9.5 22.5t9.5 22t23.5 9h774q13 0 22.5 -9t9.5 -22t-9.5 -22.5t-22.5 -9.5z
" />
    <glyph glyph-name="uniE615" unicode="&#xe615;" horiz-adv-x="1423"
d="M1311 850h-1110q-58 0 -103.5 -28.5t-45.5 -77.5v-683q0 -53 48 -101t101 -48h1110q49 0 77.5 45.5t28.5 103.5v683q0 106 -106 106zM1311 765q17 0 19 -2t2 -19v-683v-6q0 -12 -0.5 -19.5t-2 -18t-6.5 -15.5t-12 -5h-1110q-17 0 -40.5 23t-23.5 41v683q0 7 5.5 12
t16 6.5t17.5 2t20 0.5h5h1088h22zM735 206q-16 0 -28 11l-640 512q-14 11 -15 29t10.5 31t29 14.5t31.5 -10.5l612 -487l612 487q13 12 30.5 10.5t29 -14.5t10.5 -31t-14 -29l-640 -512q-12 -11 -28 -11z" />
    <glyph glyph-name="uniE616" unicode="&#xe616;"
d="M800 717h64q13 0 22.5 -9.5t9.5 -23.5v-32q0 -13 -9.5 -23t-22.5 -10h-64q-13 0 -22.5 10t-9.5 23v32q0 14 9.5 23.5t22.5 9.5zM800 522h64q13 0 22.5 -9.5t9.5 -23.5v-32q0 -14 -9.5 -23.5t-22.5 -9.5h-64q-13 0 -22.5 9.5t-9.5 23.5v32q0 14 9.5 23.5t22.5 9.5z
M800 327h64q13 0 22.5 -9.5t9.5 -23.5v-32q0 -14 -9.5 -23.5t-22.5 -9.5h-64q-13 0 -22.5 9.5t-9.5 23.5v32q0 14 9.5 23.5t22.5 9.5zM800 132h64q13 0 22.5 -9.5t9.5 -23.5v-32q0 -14 -9.5 -23.5t-22.5 -9.5h-64q-13 0 -22.5 9.5t-9.5 23.5v32q0 14 9.5 23.5t22.5 9.5z
M160 717h64q13 0 22.5 -9.5t9.5 -23.5v-32q0 -13 -9.5 -23t-22.5 -10h-64q-13 0 -22.5 10t-9.5 23v32q0 14 9.5 23.5t22.5 9.5zM160 522h64q13 0 22.5 -9.5t9.5 -23.5v-32q0 -14 -9.5 -23.5t-22.5 -9.5h-64q-13 0 -22.5 9.5t-9.5 23.5v32q0 14 9.5 23.5t22.5 9.5zM160 327
h64q13 0 22.5 -9.5t9.5 -23.5v-32q0 -14 -9.5 -23.5t-22.5 -9.5h-64q-13 0 -22.5 9.5t-9.5 23.5v32q0 14 9.5 23.5t22.5 9.5zM160 132h64q13 0 22.5 -9.5t9.5 -23.5v-32q0 -14 -9.5 -23.5t-22.5 -9.5h-64q-13 0 -22.5 9.5t-9.5 23.5v32q0 14 9.5 23.5t22.5 9.5zM960 880
h-896q-26 0 -45 -19t-19 -46v-878q0 -27 19 -46t45 -19h896q26 0 45 19t19 46v878q0 27 -19 46t-45 19zM960 -63h-896v878h896v-878z" />
    <glyph glyph-name="uniE617" unicode="&#xe617;"
d="M509 772l183 -202q12 -13 28.5 -15t28.5 10l15 10q12 12 12 29.5t-12 30.5l-211 230v1l-15 15q-12 13 -29 13t-29 -13l-14 -15l-1 -1l-205 -227q-12 -12 -12 -29.5t12 -30.5l14 -10q13 -11 29 -9t29 15zM569 802v-798q0 -11 -17 -19t-40.5 -8t-40 8t-16.5 19v798
q0 12 16.5 20t40 8t40.5 -8t17 -20zM509 -6l183 202q12 13 28.5 15t28.5 -10l15 -10q12 -12 12 -29.5t-12 -30.5l-211 -231v-1l-15 -15q-12 -12 -29 -12t-29 12l-14 15v1h-1l-205 228q-12 12 -12 29.5t12 30.5l14 9q13 12 29 10t29 -15z" />
    <glyph glyph-name="uniE618" unicode="&#xe618;" horiz-adv-x="1025"
d="M308 349q0 -13 9 -22l194 -186l194 186q10 9 10 22t-9.5 22.5t-23 9.5t-22.5 -9l-149 -147l-148 147q-10 9 -23 9t-22.5 -9.5t-9.5 -22.5zM480 864v-657q0 -13 9.5 -22t23 -9t22.5 9t9 22v657q0 14 -9 23t-22.5 9t-23 -9t-9.5 -23zM64 581h289v-64h-250q-16 0 -27.5 -11
t-11.5 -27v-490q0 -16 11.5 -27t27.5 -11l818 1q16 0 27.5 11t11.5 27v489q0 16 -11.5 27t-27.5 11h-249v64h288q27 0 45.5 -18.5t18.5 -44.5v-568q0 -26 -18.5 -44.5t-45.5 -18.5h-896q-27 0 -45.5 18.5t-18.5 44.5v568q0 26 18.5 44.5t45.5 18.5z" />
    <glyph glyph-name="uniE619" unicode="&#xe619;" horiz-adv-x="1152"
d="M796 11q-15 0 -25.5 10.5t-10.5 26t10.5 26t25.5 10.5h82q59 0 107 40t72.5 100t24.5 124q0 101 -74.5 174.5t-176.5 75.5h-26l-7 25q-59 194 -261 194q-132 0 -213 -88.5t-81 -223.5l1 -1l3 -33l-33 -6q-60 -11 -101.5 -65.5t-41.5 -123.5q0 -78 51 -135t121 -57h104
q15 0 25.5 -10.5t10.5 -26t-10.5 -26t-25.5 -10.5h-104q-99 0 -171 78.5t-72 186.5q0 88 48.5 158.5t123.5 95.5q10 155 111 257.5t254 102.5q120 0 201.5 -58t119.5 -163q124 -13 208.5 -104.5t84.5 -216.5q0 -61 -17.5 -119t-51 -106.5t-86.5 -79t-118 -32.5h-82zM575 317
l116 -129q8 -8 18 -9.5t18 6.5l9 6q8 8 8 19t-8 19l-133 149v0l-10 10q-7 8 -17.5 8t-18.5 -8l-9 -10h-1l-130 -146q-7 -8 -7 -19.5t7 -19.5l10 -6q7 -8 17.5 -6.5t18.5 9.5zM576 -128q14 0 25 10.5t11 26.5v402q0 15 -11 25.5t-25.5 10.5t-25 -10.5t-10.5 -25.5v-402
q0 -16 10.5 -26.5t25.5 -10.5z" />
    <glyph glyph-name="uniE61A" unicode="&#xe61a;" horiz-adv-x="1920"
d="M989 -168l903 902l-123 122l-902 -902zM1066 -26l-903 903l-122 -122l903 -903z" />
    <glyph glyph-name="uniE61B" unicode="&#xe61b;" horiz-adv-x="1920"
d="M989 936l903 -902l-123 -122l-902 902zM1066 794l-903 -903l-122 122l903 903z" />
    <glyph glyph-name="uniE61C" unicode="&#xe61c;" horiz-adv-x="1028"
d="M211.5 180q-13.5 0 -22.5 9l-189 194l189 194q9 10 22.5 10t23 -9.5t9.5 -23t-10 -22.5l-148 -149l148 -148q10 -10 10 -23t-9.5 -22.5t-23 -9.5zM671 352h-604q-13 0 -22.5 9.5t-9.5 23t9.5 22.5t22.5 9h604q13 0 22.5 -9t9.5 -22.5t-9.5 -23t-22.5 -9.5zM351 -64v289
h65v-250q0 -16 11 -27.5t27 -11.5h466q16 0 27.5 11.5t11.5 27.5l-1 818q0 16 -11.5 27.5t-27.5 11.5h-465q-16 0 -27 -11.5t-11 -27.5v-249h-65v288q0 27 19 45.5t45 18.5h544q27 0 45.5 -18.5t18.5 -45.5v-896q0 -27 -18.5 -45.5t-45.5 -18.5h-544q-26 0 -45 18.5
t-19 45.5z" />
    <glyph glyph-name="uniE61D" unicode="&#xe61d;" horiz-adv-x="1434"
d="M511.5 895q-68.5 0 -136 -33.5t-109.5 -85.5t-42 -104v-160q0 -66 30.5 -150.5t90.5 -132.5l-281 -133q-7 -3 -17.5 -9t-28.5 -22.5t-18 -32.5v-96q0 -27 18.5 -45.5t45.5 -18.5h896q26 0 44.5 18.5t18.5 45.5v96q0 17 -16 33t-31 23l-16 8l-279 132q60 47 89.5 130
t29.5 154v160q0 52 -42 104t-110 85.5t-136.5 33.5zM512 831q52 0 105 -25.5t86 -63t33 -70.5v-160q0 -57 -24 -127t-71 -107q-28 -22 -23.5 -57.5t36.5 -50.5l279 -132h2l4 -2t5 -3t5.5 -5t5 -7t3.5 -10t1 -13l1 -62h-896v65q0 24 27 37l281 132q32 15 36.5 50.5
t-23.5 58.5q-46 36 -71.5 107t-25.5 126v160q0 33 33 70.5t86 63t105 25.5zM1323 425q-3 -2 -7 -3l-54 -13l-5 -16q-4 -10 -9 -21l-7 -14l28 -48q3 -4 3 -7l-19 -19q-4 1 -5 2l-48 30l-15 -7q-11 -6 -22 -9l-16 -6l-12 -54q-1 -4 -3 -6h-27q-2 2 -2 6l-14 54l-15 5
q-13 4 -24 10l-15 8l-49 -31q-3 -2 -6 -2l-19 19q1 3 3 7l30 49l-7 15q-5 10 -8 19l-5 16l-54 13q-4 1 -7 3v27l1 1q3 1 4 1l55 12l5 17q3 9 9 21l7 14l-30 49q-2 4 -3 7l19 20q4 -2 5 -2l50 -32l15 8q11 6 23 10l16 5l13 54q1 4 3 7h27q0 -1 1 -2q1 -2 1 -3l13 -56l16 -5
q11 -4 22 -9l15 -8l47 30q3 2 6 2l19 -19q0 -3 -2 -6l-29 -49l7 -14q6 -12 9 -22l5 -17l55 -12q5 0 6 -3v-26zM1374 494l-47 11q-5 16 -14 33l25 43q20 31 0 51l-25 26q-12 10 -27 10t-26 -8l-42 -26q-16 8 -33 14l-11 47q-2 14 -13 25t-25 11h-37q-14 0 -23.5 -10.5
t-12.5 -25.5l-12 -47q-18 -6 -36 -15l-42 27q-12 8 -26.5 8t-26.5 -10l-26 -26q-20 -20 0 -51l27 -45q-8 -16 -13 -31l-47 -11q-14 -2 -25 -13t-11 -25v-37q0 -14 11 -23.5t26 -13.5l47 -11q5 -15 12 -30l-27 -44q-20 -32 0 -52l26 -26q12 -10 26.5 -9.5t26.5 8.5l42 27
q18 -10 36 -15l12 -47q3 -15 13 -26t24 -11h36q15 0 25.5 11t13.5 26l10 47q17 6 33 14l42 -26q11 -8 26 -8.5t27 9.5l25 26q20 20 0 52l-25 42q8 16 13 32l48 11q14 4 25 13.5t11 23.5v37q0 14 -11 25t-25 13zM1123 486q-20 0 -34 -14t-14 -33.5t14 -33.5t34 -14t33.5 14
t13.5 33.5t-13.5 33.5t-33.5 14zM1118 329q-46 0 -78 32t-32 77.5t32 78t77.5 32.5t78 -32.5t32.5 -78t-32.5 -77.5t-77.5 -32z" />
    <glyph glyph-name="uniE691" unicode="&#xe691;"
d="M843 504h-94v-59h94q10 0 17 -7.5t7 -17.5v-484q0 -10 -7 -17.5t-17 -7.5h-662q-10 0 -17 7.5t-7 17.5v484q0 10 7 17.5t17 7.5h94v59h-94q-34 0 -59 -25t-25 -59v-484q0 -35 25 -59.5t59 -24.5h662q34 0 59 24.5t25 59.5v484q0 34 -25 59t-59 25zM344 229
q26 0 44.5 18.5t18.5 43.5q0 38 -33 55v214q0 52 45 90.5t100 38.5q53 0 92 -38t39 -91v-212q-16 -7 -26 -22.5t-10 -34.5q0 -25 18.5 -43.5t44 -18.5t44 18.5t18.5 43.5q0 35 -29 53v216q0 77 -57 132.5t-134 55.5q-80 0 -142.5 -56t-62.5 -132v-214q-32 -18 -32 -55
q0 -25 18 -43.5t44 -18.5zM414 445h196v59h-196v-59z" />
  </font>
</defs>
</svg>
